<?xml version="1.0" standalone="no"?>
<!DOCTYPE svg PUBLIC "-//W3C//DTD SVG 1.1//EN" "http://www.w3.org/Graphics/SVG/1.1/DTD/svg11.dtd">
<svg xmlns="http://www.w3.org/2000/svg">
<metadata>Copyright (C) 2019 by original authors @ fontello.com</metadata>
<defs>
<font id="fontello" horiz-adv-x="1000" >
<font-face font-family="fontello" font-weight="400" font-stretch="normal" units-per-em="1000" ascent="850" descent="-150" />
<missing-glyph horiz-adv-x="1000" />
<glyph glyph-name="affordable_meds_icons_v04-26" unicode="&#xe800;" d="M83 477h-56c-16 0-27-11-27-27v-203c0-16 11-26 27-26h56c18 0 34-11 42-30 8-16 6-34-8-48l-42-40c-11-10-11-26 0-37l141-144c5-3 13-5 19-5 8 0 13 2 18 8l40 40c19 18 46 18 64 0 8-8 14-19 14-32v-59c0-16 10-27 26-27h203c16 0 27 11 27 27v59c0 24 21 45 45 45 13 0 24-5 32-13l40-40c11-11 27-11 37 0l144 144c11 10 11 26 0 37l-40 40c-18 19-18 45 0 64 8 8 22 13 32 13h59c16 0 27 11 27 27v200c0 16-11 27-27 27h-59c-24 0-45 21-45 45 0 13 5 24 13 32l40 40c11 11 11 27 0 37l-144 142c-10 10-26 10-37 0l-40-40c-13-14-32-19-51-11-18 8-29 24-29 43v58c0 16-11 27-27 27h-197c-16 0-27-11-27-27v-56c0-18-10-34-29-42-16-8-37-3-51 10l-40 40c-10 11-26 11-37 0l-141-144c-11-10-11-26 0-37l40-40c13-13 18-32 10-51-5-16-24-26-42-26z m69 114l-21 24 106 107 22-21c26-30 69-38 106-22 38 14 62 48 62 88v32h149v-32c0-40 24-74 59-90 37-16 80-8 106 21l22 21 106-106-24-22c-37-37-37-98 0-138 19-19 43-30 70-30h32v-149h-35c-53 0-99-43-99-99 0-26 11-50 30-69l21-24-107-107-21 24c-37 38-101 38-139 0-18-18-29-42-29-69v-32h-149v32c0 53-43 99-99 99-27 0-51-11-69-30l-22-21-106 107 21 24c29 26 37 69 21 106-16 38-50 62-90 59h-24v149h32c40 0 74 24 90 62 16 37 8 80-21 106z m349-408c94 0 168 75 168 168s-74 168-168 168-168-74-168-168 75-168 168-168c0 0 0 0 0 0z m0 283c64 0 115-51 115-115s-51-117-115-117-117 51-117 117c0 64 53 115 117 115l0 0z" horiz-adv-x="1000" />

<glyph glyph-name="affordable_meds_icons_v04-27" unicode="&#xe801;" d="M341 168c56 0 115 15 164 41 21 13 41 26 59 41l64-64-38-36c-10-10-10-26 0-36l256-259c10-10 26-10 36 0l113 113c10 10 10 26 0 36l-256 259c-11 10-26 10-36 0l-39-39-67 62c16 18 29 36 42 56 92 164 33 372-134 464s-372 34-464-130-31-375 133-464c52-29 108-44 167-44l0 0z m377 41l223-223-77-77-223 223 77 77z m-582 505c113 116 297 118 410 5 95-92 116-238 51-354-25-48-66-87-112-112-141-77-318-29-400 110-64 115-44 261 51 351l0 0z m82-82c67 67 177 67 244 0 10-10 25-10 35 0 11 10 11 26 0 36-87 87-228 87-315 0-8-13-2-28 8-36 10-5 20-5 28 0z" horiz-adv-x="1000" />

<glyph glyph-name="affordable_meds_icons_v04-28" unicode="&#xe802;" d="M1300-98h-80v642c0 17-11 28-27 28h-171c-16 0-27-11-27-28v-642h-72v449c0 17-11 28-28 28h-170c-17 0-28-11-28-28v-449h-72v557c0 16-11 27-27 27h-171c-16 0-28-11-28-27v-557h-68v353c0 17-11 28-28 28h-171c-16 0-27-11-27-28v-353h-77c-14 3-31-5-34-19-2-14 6-30 20-33 5 0 8 0 14 0h1272c14 3 25 19 20 33 0 8-9 17-20 19z m-1022 0h-118v325h118l0-325z m295 0h-116v532h116l0-532z m298 0h-119v422h119l0-422z m297 0h-116v615h116v-615z m-948 441c56 0 102 44 102 99 0 14-2 25-8 39l141 105c44-33 107-25 140 16l116-49c0-6 0-9 0-14-3-55 41-105 96-108 55-2 105 42 108 97 0 2 0 8 0 11 0 11-3 22-9 33l138 96c19-16 41-25 63-25 56 0 102 45 102 102s-44 105-99 105c-55 0-102-44-102-102 0-11 3-22 6-33l-138-96c-41 35-105 30-140-14 0 0-3-3-3-3l-119 50c0 5 0 8 0 13 3 56-41 105-96 108s-102-41-105-99c0-3 0-9 0-11 0-14 3-25 9-36l-141-105c-16 14-39 22-61 22-55-2-99-49-96-107 3-50 44-91 96-94z m890 455c28-3 47-25 44-53-2-24-19-41-44-44-5 0-11 0-16 3-20 6-31 25-33 44l0 0c0 28 22 47 49 50-3 0-3 0 0 0l0 0z m-325-218c8 6 17 8 28 8 5 0 11 0 16-2 20-6 31-25 31-44l0 0c0-28-22-47-47-47-22 0-44 16-47 38 0 3 0 6 0 9 0 16 8 30 19 38z m-270 132c22 0 42-16 47-38 0-3 0-6 0-9 0-16-8-30-22-41-8-5-17-8-25-8-5 0-11 0-16 3-17 8-31 24-31 44 0 0 0 2 0 2 0 25 22 47 47 47 0 0 0 0 0 0z m-295-220c6 0 11 0 17-3 19-5 30-25 33-44v-3c0-27-22-46-47-46-27 0-47 22-47 46-2 28 17 50 44 50z" horiz-adv-x="1328" />

<glyph glyph-name="affordable_meds_icons_v04-29" unicode="&#xe803;" d="M948 850h52v-708h-52v708z m-110 0h51v-562h-51v562z m-116 0h52v-562h-52v562z m-101 0h52v-423h-52v423z m-108 0h52v-315h-52v315z m-106 0h52v-261h-52v261z m-106 0h52v-261h-52v261z m-103 0h51v-303h-51v303z m-106 0h49v-372h-49v372z m-92 0h52v-687h-52v687z m362-880c-157 0-287 129-287 287s130 287 287 287c158 0 287-129 287-287v0c0-158-127-287-287-287z m0 525c-129 0-235-106-235-236s106-235 235-235 236 106 236 235-104 236-236 236z m196-400l33 40 306-243-33-40-306 243z" horiz-adv-x="1000" />

<glyph glyph-name="affordable_meds_icons_v04-30" unicode="&#xe804;" d="M493 701c0 4-3 9-9 11l-122 64c-6 1-11 1-14 0l-123-64c-5-4-9-9-9-14v-104l-173-83c-5-4-8-9-8-14 0-5 3-10 7-14l109-65v-115c0-5 3-10 8-14l189-95c2-1 5-1 7-1 1 0 5 0 7 1l188 95c5 4 9 9 9 14v115l109 65c5 4 7 9 7 14 0 5-4 10-9 14l-171 83-2 107z m16-149l-16-6v15l16-9z m-154 193l88-45-88-45-89 45 89 45z m-139-186v-15l-15 7 15 8z m-133-64l83 40 158-79-83-56-158 95z m256-261l-157 80v86l50-31c2-2 5-2 9-2 3 0 5 2 8 2l90 59v-194z m16 241l-108 53v146l101-51c2-1 5-1 7-1 1 0 5 0 7 1l100 51v-146l-107-53z m173-161l-158-80v196l90-59c2-2 5-2 9-2 3 0 5 0 9 2l50 31 0-88z m-59 86l-83 56 157 79 83-40-157-95z m450 170v-146l-19 19-25-24 61-60 61 60-25 24-19-19v146c0 66-53 117-119 117h-272v-34h272c47 2 85-37 85-83l0 0 0 0z m232-351l-66 95c-4 5-9 7-14 7l-204 27c-2 0-5 0-7 0l-163-59h0l-5-3h0c-2 0-2-2-2-2l-69-93c-3-4-3-11-2-14 2-5 6-9 11-10l57-16v-145c0-7 5-12 10-16l218-66 0 0 0 0c2 0 2 0 4 0l0 0c1 0 3 0 5 0 0 0 0 0 2 0h1l156 87c5 3 9 9 9 14v145l52 24c3 2 7 6 8 11 0 5 0 8-1 14z m-433-78l126-33c2 0 2 0 4 0 5 0 10 2 14 7l43 65v-223l-187 57v127z m177 81l-54-81-182 48 50 68 186-35z m121 73l-99-47-156 31 104 38 151-22z m-80-132l19-41c4-7 14-11 21-7l85 40v-122l-125-69v199z m177 52l-137-66-35 76 125 58 47-68z" horiz-adv-x="1208" />

<glyph glyph-name="affordable_meds_icons_v04-31" unicode="&#xe805;" d="M965-93v700l-455 181-453-181v-700h159v462h592v-462h157z m-793 504v-462h-73v627l5 3 406 163 411-163v-628h-73v460h-676z m347-115v-172h-172v-217h388v389h-216z m0-345h-130v131h130v-131z m172 0h-130v131h130v-131z m0 173h-130v130h130v-130z m-375 432h44v-44h-44v44z m115 0h158v-44h-158v44z m231 0h44v-44h-44v44z" horiz-adv-x="1013" />

<glyph glyph-name="affordable_meds_icons_v04-32" unicode="&#xe806;" d="M894 252h-45l-28 404c0 9-6 13-15 13h-87c-8 0-15-6-15-13l-27-404h-30v87c0 9-7 15-15 15-4 0-6-2-9-2l-119-98v85c0 9-6 15-15 15l0 0c-4 0-6-2-8-2l-121-98v85c0 9-7 15-15 15-5 0-7-2-9-2l-121-98v85c0 9-6 15-15 15 0 0 0 0 0 0-2 0-4 0-8-2l-145-87c-2-2-4-6-4-13v-347c0-6 6-12 14-12 0 0 0 0 0 0h837c8 0 15 6 15 14l0 0v332c0 7-7 13-15 13z m-160 390h60l27-390h-112l25 390z m-202-720v173h87v-173h-87z m347 0h-230v188c0 8-6 15-15 15 0 0 0 0 0 0h-115c-8 0-15-7-15-15 0 0 0 0 0 0v-188h-434v324l115 68v-89c0-9 7-15 15-15 4 0 6 0 9 2l121 95v-85c0-8 6-15 15-15 4 0 6 3 8 3l122 95v-85c0-8 6-15 14-15 5 0 7 2 9 2l121 96v-70c0-8 7-15 15-15 0 0 0 0 0 0h245l0-296 0 0z m-679 173h-57c-9 0-15-7-15-15v-87c0-9 6-15 15-15h57c9 0 15 6 15 15l0 0v87c0 8-6 15-15 15 2 0 2 0 0 0z m-13-88h-30v58h30l0-58z m130 88h-57c-9 0-15-7-15-15v-87c0-9 6-15 15-15h57c9 0 15 6 15 15l0 0v87c0 8-6 15-15 15 0 0 0 0 0 0z m-15-88h-27v58h29l-2-58z m130 88h-57c-9 0-15-7-15-15v-87c0-9 6-15 15-15h57c8 0 15 6 15 15l0 0v87c0 8-7 15-15 15 0 0 0 0 0 0z m-15-88h-30v58h30v-58z m77 728h-26c-8 0-15-6-15-15l0 0v-85h-72v87c0 9-6 15-15 15 0 0 0 0 0 0h-26c-8 0-14-6-14-15 0-8 6-15 14-15h11v-257c2-36 32-64 68-62 34 2 60 28 62 62v257h11c8 0 14 7 14 15 0 7-6 13-12 13l0 0z m-41-285c-2-19-19-34-38-34-17 2-32 15-34 34v160h72v-160z m-72 304c15 0 25 13 25 26s-10 27-25 27-26-12-26-25v0c0-15 11-28 26-28 0 0 0 0 0 0z m57-23c9 0 17 6 17 17 0 8-8 17-17 17-8 0-17-6-17-17 0 0 0 0 0 0 0-9 9-17 17-17z m-44-36c0-9 6-13 12-13 9 0 13 6 13 13 0 8-6 12-13 12l0 0c-6 3-12-4-12-12z" horiz-adv-x="940" />

<glyph glyph-name="affordable_meds_icons_v04-33" unicode="&#xe807;" d="M894 252h-45l-28 404c0 9-6 13-15 13h-87c-8 0-15-6-15-13l-27-404h-30v87c0 9-7 15-15 15-4 0-6-2-9-2l-119-98v85c0 9-6 15-15 15l0 0c-4 0-6-2-8-2l-121-98v85c0 9-7 15-15 15-5 0-7-2-9-2l-121-98v85c0 9-6 15-15 15 0 0 0 0 0 0-2 0-4 0-8-2l-145-87c-2-2-4-6-4-13v-347c0-6 6-12 14-12 0 0 0 0 0 0h837c8 0 15 6 15 14l0 0v332c0 7-7 13-15 13z m-160 390h60l27-390h-112l25 390z m-202-720v173h87v-173h-87z m347 0h-230v188c0 8-6 15-15 15 0 0 0 0 0 0h-115c-8 0-15-7-15-15 0 0 0 0 0 0v-188h-434v324l115 68v-89c0-9 7-15 15-15 4 0 6 0 9 2l121 95v-85c0-8 6-15 15-15 4 0 6 3 8 3l122 95v-85c0-8 6-15 14-15 5 0 7 2 9 2l121 96v-70c0-8 7-15 15-15 0 0 0 0 0 0h245l0-296 0 0z m-679 173h-57c-9 0-15-7-15-15v-87c0-9 6-15 15-15h57c9 0 15 6 15 15l0 0v87c0 8-6 15-15 15 2 0 2 0 0 0z m-13-88h-30v58h30l0-58z m130 88h-57c-9 0-15-7-15-15v-87c0-9 6-15 15-15h57c9 0 15 6 15 15l0 0v87c0 8-6 15-15 15 0 0 0 0 0 0z m-15-88h-27v58h29l-2-58z m130 88h-57c-9 0-15-7-15-15v-87c0-9 6-15 15-15h57c8 0 15 6 15 15l0 0v87c0 8-7 15-15 15 0 0 0 0 0 0z m-15-88h-30v58h30v-58z m189 624l-55 79c-2 4-6 6-13 4l-168 25c-2 0-4 0-6 0l-134-49 0 0-2-2 0 0-2-2-58-79c-2-4-4-8-2-12 2-5 4-7 9-9l48-13v-121c0-6 5-10 9-13l181-55 0 0 0 0h2l0 0c2 0 2 0 4 0h0 2l132 72c4 3 7 7 7 11v121l42 22c4 2 7 4 7 8 2 7 0 11-3 13z m-357-64l104-28h2c5 0 9 3 11 7l38 55v-185l-155 47 0 104z m145 68l-45-66-151 41 40 55 156-30z m102 60l-81-36-130 23 87 32 124-19z m-66-109l17-34c2-6 10-8 17-6 0 0 0 0 0 0l70 34v-100l-104-58v164z m147 43l-113-56-30 64 104 49 39-57z" horiz-adv-x="966" />

<glyph glyph-name="affordable_meds_icons_v04-01" unicode="&#xe808;" d="M500 683c-46 0-83 38-83 84s37 83 83 83 83-37 83-83-37-84-83-84z m0 125c-23 0-42-18-42-41s19-42 42-42 42 19 42 42-19 41-42 41z m0-416c-12 0-21 8-21 21v291c0 13 9 21 21 21s21-8 21-21v-291c0-13-8-21-21-21z m269 104h-6c-30 0-55 14-71 37-7 9-7 23 4 30s23 6 29-5c0 0 2-2 2-4 11-12 25-19 40-19 18-2 39 7 52 21 4 7 12 9 21 7 62-15 85 10 106 58-73-13-138 29-188 62-29 21-54 36-68 36-21 0-34-15-52-40-17-27-42-46-71-54-13-2-23 6-25 17-2 12 6 23 16 25 19 4 32 21 46 37 19 25 44 56 86 56 27 0 56-18 89-39 56-38 121-79 192-48 10 4 23 0 27-10 2-5 2-11 0-15l-4-13c-19-50-48-133-154-112-19-19-44-27-71-27z m-538 0c-27 0-52 8-71 27-106-19-135 65-154 112l-4 13c-2 8 0 17 4 23 7 4 15 6 23 4 71-31 136 8 192 46 33 21 62 39 89 39 44 0 67-31 86-56 14-19 27-35 46-39 12-2 18-13 16-25-2-13-12-19-25-17-29 8-54 27-70 54-19 25-32 40-55 40-14 0-39-17-66-34-50-31-115-73-188-62 21-46 44-73 106-58 9 2 17 0 21-7 13-14 34-23 52-21 15 0 30 7 40 19 6 11 19 15 27 9s15-19 8-28c0-2-2-2-2-4-14-21-39-35-68-35h-7z m304-417c-12 0-20 9-22 19 0 8 2 15 8 19 35 25 58 64 62 108 0 63-50 92-89 104l-23 9c-63 18-158 47-158 137 0 46 37 83 83 83 17 0 33-4 46-14 10-6 12-19 6-29 0 0 0 0 0 0-6-11-19-13-29-7 0 0 0 0 0 0-19 13-46 9-59-10-4-6-6-15-6-23 0-54 56-75 127-98l25-8c77-25 119-75 119-144-4-56-33-106-77-140-4-4-8-6-13-6z m-4-229c-2 0-4 0-6 0-10 4-17 15-12 27 0 0 0 0 0 0 8 25 14 48 18 75 0 52-35 88-73 125s-83 86-83 150c0 38 15 73 42 100 8 8 21 8 29 0 8-8 8-21 0-29 0 0 0 0 0 0-19-21-29-46-29-73 0-48 33-81 71-119 39-39 85-87 85-154-2-29-10-60-21-87-4-9-12-15-21-15z m-62 0c-11 0-19 6-21 17-2 6-4 14-6 20-21 44-19 96 4 140 6 11 19 15 29 8 10-6 13-16 8-27-23-43-12-75-2-106 2-8 7-17 9-23 4-10-2-23-15-25 0 0 0 0 0 0-2-4-4-4-6-4z m108 504c-12 0-21 9-21 21 0 8 4 17 13 19 52 21 77 46 77 79 0 23-19 42-42 42-8 0-16-2-23-7-10-6-23-4-29 7-6 10-4 23 6 29l0 0c15 8 30 14 46 14 46 0 84-37 84-83 0-79-78-108-103-119-2 0-6-2-8-2z m-77-212c-12 0-21 8-21 21v125c0 12 9 20 21 20s21-8 21-20v-125c0-13-8-21-21-21z" horiz-adv-x="1000" />

<glyph glyph-name="affordable_meds_icons_v04-02" unicode="&#xe809;" d="M619-150h-244a22 22 0 0 0-22 22v228l-197-114a22 22 0 0 0-17-2 24 24 0 0 0-14 10l-122 212a22 22 0 0 0 8 30l197 114-197 114a22 22 0 0 0-11 13 24 24 0 0 0 3 17l122 212a22 22 0 0 0 31 8l197-114v228a22 22 0 0 0 22 22h244a22 22 0 0 0 23-22v-228l197 114a22 22 0 0 0 30-8l122-212a24 24 0 0 0 3-16 22 22 0 0 0-11-14l-197-114 197-114a22 22 0 0 0 8-30l-122-212a24 24 0 0 0-13-10 22 22 0 0 0-17 2l-197 114v-228a22 22 0 0 0-23-22z m-222 44h200v245a22 22 0 0 0 11 19 22 22 0 0 0 22 0l212-122 100 174-212 121a22 22 0 0 0 0 39l212 122-100 173-212-122a22 22 0 0 0-22 0 22 22 0 0 0-11 19v244h-200v-245a22 22 0 0 0-11-19 22 22 0 0 0-22 0l-211 122-100-173 211-122a22 22 0 0 0 0-38l-211-122 100-173 211 122a22 22 0 0 0 22 0 22 22 0 0 0 11-20z" horiz-adv-x="994" />

<glyph glyph-name="affordable_meds_icons_v04-03" unicode="&#xe80a;" d="M933 531h-10v152c0 9-8 17-17 17h-237v69c0 8-9 16-17 16h-254c-8 0-17-8-17-16v-69h-235c-8 0-17-6-17-17l0 0v-152h-10c-9 0-17-8-17-16v-57c0-8 8-16 17-16h10v-490c0-8 9-17 17-17h760c9 0 17 9 17 17v490h10c9 0 17 8 17 16v57c0 10-8 16-17 16z m-143-454v-108h-177v108h177z m0 169v-136h-177v136l177 0z m0 98v-65h-177v65h177z m16 33h-210c-8 0-17-8-17-17v-391h-416v473h727v-473h-65v391c-2 11-8 17-19 17z m-643 154v136h220v-136h-220z m254 0v221h218v-221h-218z m252 0v136h221v-136h-221z m248-33v-23h-784v23l784 0z m-167-338c8 0 17 9 17 17v15c0 8-9 16-17 16s-17-8-17-16c0 0 0 0 0 0v-15c0-8 9-17 17-17z m-154 528h-25v25c0 8-8 16-17 16h-56c-8 0-17-8-17-16v-25h-25c-8 0-16-9-16-17v-56c0-9 8-17 16-17h25v-25c0-8 9-17 17-17h56c9 0 17 9 17 17v25h25c8 0 17 8 17 17v56c0 8-9 17-17 17z m-98-57h-25v23h25c8 0 17 9 17 17v25h23v-25c0-8 8-17 16-17h25v-23h-25c-8 0-16-8-16-16v-25h-23v25c0 8-9 16-17 16z m19-248h-296c-19 0-33-14-33-33 0 0 0 0 0 0v-225c0-19 14-33 33-33h0 298c19 0 33 14 33 33l0 0v225c-2 19-17 33-35 33 0 0 0 0 0 0z m-2-254h-292v219h292v-219z" horiz-adv-x="1046" />

<glyph glyph-name="affordable_meds_icons_v04-04" unicode="&#xe80b;" d="M500-150h-437c-36 0-63 27-63 62v771c0 36 27 63 63 63h83v-42h-83c-13 0-21-8-21-21v-771c0-12 8-20 21-20h437v-42z m292 542h-42v291c0 13-8 21-21 21h-83v42h83c36 0 63-27 63-63v-291z m-354-459h-355v730h63v-42h-21v-646h313v-42z m270 459h-41v229h-21v42h62v-271z m-83 208h-458v83c0 46 37 84 83 84h44c10 56 66 93 123 81 41-8 73-40 81-81h44c46 0 83-38 83-84v-83z m-417 42h375v41c0 23-18 42-41 42h-84v21c0 35-27 62-62 62s-63-27-63-62v-21h-83c-23 0-42-19-42-42v-41z m167 125h42v-42h-42v42z m313-917c-138 0-250 112-250 250s112 250 250 250 250-112 250-250-113-250-250-250z m0 458c-115 0-209-93-209-208s94-208 209-208 208 93 208 208-94 208-208 208z m-415 73l-58 59c-9 8-9 20 0 29s20 8 29 0l25-25 69 85c8 9 20 9 29 0 8-6 8-19 2-27l-96-121z m0-166l-58 58c-9 8-9 21 0 29s20 8 29 0l0 0 25-25 69 86c6 10 18 12 29 6s12-19 6-29c0 0-2-2-2-2l-98-123z m0-167l-58 58c-9 9-9 21 0 29 8 9 20 9 29 0l25-25 69 86c8 8 20 8 29 0 8-6 8-19 2-27l-96-121z m477-94h-125v84h-83v125h83v83h125v-83h83v-125h-83v-84z m-83 42h41v83h84v42h-84v83h-41v-83h-84v-42h84v-83z" horiz-adv-x="938" />

<glyph glyph-name="affordable_meds_icons_v04-05" unicode="&#xe80c;" d="M893 320l-43 5c-13 33-32 62-54 87l30 133c2 10-3 21-13 22-2 0-2 0-4 0h-3c-53 0-99-32-118-80-13 5-27 10-41 14-10 2-20-5-22-14-1-10 4-19 14-22 46-10 88-34 121-68 2-2 3-4 5-5 24-26 43-56 54-89 2-7 9-10 16-12l53-7c8-1 15-8 15-17v-92c0-8-7-15-15-17l-50-6c-7-2-13-6-15-14-15-48-43-89-82-121-3-3-7-9-7-14v-102c0-10-7-17-17-17h-104c-10 0-17 7-17 17v39c0 10-8 19-18 19h0-154c-10 0-18-9-18-19l0 0v-39c0-10-7-17-18-17h-105c-10 0-17 7-17 17v72c0 6-4 13-10 17-125 68-169 223-101 347 44 82 130 131 222 133h23c11 0 19 9 19 19 0 10-8 19-19 19 0 0 0 0 0 0h-22c-133 0-250-91-283-220h-13c-26 0-44 20-44 44 0 26 20 44 44 44 10 2 17 11 17 21 0 8-9 15-17 17-44 2-84-32-85-78s32-84 78-86c2 0 5 0 7 0h7c-2-12-2-22-2-34 0-104 54-199 143-252v-61c0-29 24-53 53-53h105c29 0 53 24 55 53 0 0 0 0 0 0v20h118v-20c0-29 23-53 52-53h106c29 0 53 24 53 53v93c37 33 65 76 82 122l37 5c27 3 46 25 48 52v92c1 28-19 50-46 53z m-108 208l-20-87c-14 12-29 21-44 29 10 29 34 51 64 58z m-54-230c7 7 7 19 0 26 0 0 0 0 0 0-4 3-9 5-14 5-10 0-18-9-18-19 0-5 1-10 5-14 3-3 8-5 13-5 5 2 10 4 14 7z m-193 385c-10 0-18-8-18-19 0 0 0 0 0 0v-73c0-10 8-19 18-19 11 0 19 9 19 19v73c0 11-8 19-19 19z m0 29c5 0 11 2 14 5 7 7 7 19 0 26 0 0 0 0 0 0-3 3-9 5-14 5-5 0-10-2-13-5-7-7-7-19 0-26 0 0 0 0 0 0 3-3 8-5 13-5z m-150 10c11 0 19 9 19 19v31c2 10-7 18-17 20s-19-7-20-17c0-2 0-2 0-3v-31c1-10 8-19 18-19z m-197-526c10 0 19 8 19 19l0 0c0 10-9 18-19 18-10 0-19-8-19-18v-2c0-10 9-17 19-17l0 0z m80-157c3-2 7-3 10-3 10 0 19 8 19 18 0 7-4 12-9 16-32 19-56 49-69 83-6 9-16 12-26 7-7-3-12-12-9-20 16-41 45-77 84-101z m117 508c43 0 77 34 77 76 0 43-34 77-77 77s-76-34-76-77c0 0 0 0 0 0 0-40 34-76 76-76z m0 117c23 0 41-18 41-41s-18-40-41-40-40 18-40 40v0c1 24 18 41 40 41z m84-264h-90c-11 0-19-8-19-18 0-11 8-19 19-19h238c10 0 19 8 19 19 0 10-9 18-19 18 0 0 0 0 0 0h-17c9 12 12 26 12 41 0 43-34 77-77 77s-76-34-76-77c0-13 3-27 10-41z m66 82c23 0 41-19 41-41 0-22-18-41-41-41s-41 19-41 41l0 0c0 22 19 41 41 41z" horiz-adv-x="940" />

<glyph glyph-name="affordable_meds_icons_v04-06" unicode="&#xe80d;" d="M684 611v-17c0-8 5-14 13-14h84c7 0 13 6 13 14 0 0 0 0 0 0v17c10 4 18 8 24 16 7 8 11 19 7 31-4 25-17 46-39 60-15 6-33 10-48 8-18 0-33-2-49-8-21-14-35-35-38-60-2-12 0-23 7-31 8-8 16-14 26-16z m13 24c-8 0-13 3-19 9 0 2 0 6 0 8 2 16 11 31 25 41 12 4 23 6 35 6 12 0 23-2 35-6 13-10 23-24 25-41 0-2 0-6 0-8-6-6-12-9-19-9-8 0-14-6-14-14v-16h-58v16c2 8-4 14-10 14z m14 46c9 0 17-8 17-17s-8-18-17-18-18 8-18 18 8 17 18 17z m56 0c10 0 18-8 18-17s-8-18-18-18-17 8-17 18 7 17 17 17z m-29-29c10 0 17-8 17-17s-7-18-17-18-18 8-18 18 8 17 18 17z m111-66v8c0 8-6 13-14 13-8 0-14-5-14-13l0 0v-6l-87-45-80 43v6c0 8-5 13-13 13-8 0-14-5-14-13l0 0v-8l-9-10c-6-6-6-13 0-19 0 0 0 0 0 0 5-6 13-6 19 0 0 0 0 0 0 0l6 8 62-33-35-18-6 8c-6 6-13 6-19 0 0 0 0 0 0 0-6-6-6-14 0-19 0 0 0 0 0 0l9-10v-8c0-8 6-14 14-14 0 0 0 0 0 0 8 0 14 6 14 14v6l52 25 47-25v-6c0-8 5-14 13-14 0 0 0 0 0 0 8 0 14 6 14 14v8l10 10c5 5 5 13 0 19 0 0 0 0 0 0-6 6-14 6-20 0 0 0 0 0 0 0l-8-8-29 16 70 35 8-8c6-6 13-6 19 0s6 13 0 19l-9 12z m-231-517c9 0 17 8 17 18l0 0v74c2 9-6 19-16 19-9 2-19-6-19-15 0-2 0-2 0-4v-74c0-10 8-18 18-18z m403 282c-5 4-11 4-17 2l-179-76v58c0 10-7 18-19 18-2 0-4 0-6-2l-179-76v59c0 5-3 11-7 15-6 4-12 4-18 2l-58-25 0 0-6-2v101h454v353h-454v6c0 10-8 18-17 18-10 0-18-8-18-18v-474l-76-31v86l-52-24-21 340h-121l-13-406-22-9c-6-2-11-10-11-18v-283c0-10 7-18 17-18h814c9 0 17 8 17 18v369c0 7-2 13-8 17z m-704 295l21-316-89-35 13 351h55z m73-411c6-4 12-4 18-2l153 64h2v0l23 9v-58c0-6 4-12 8-15 6-4 12-4 18-2l178 75v-58c0-10 8-17 18-17 2 0 4 0 8 2l178 75v-324h-776v252l167 70v-58c0-4 1-10 5-13z m142 223v285h421v-285h-421z m-126-389c10 0 17 8 17 18l0 0v74c2 9-5 19-15 19s-20-6-20-15c0-2 0-2 0-4v-74c0-10 8-18 18-18z m107 0c9 0 17 8 17 18l0 0v74c0 9-8 17-17 17s-18-8-18-17v-74c-2-10 8-18 18-18l0 0z m-212 109c-10 0-17-8-17-17l0 0v-74c0-10 7-18 17-18 10 0 17 8 17 18v74c0 9-7 17-17 17 0 0 0 0 0 0z" horiz-adv-x="1142" />

<glyph glyph-name="affordable_meds_icons_v04-07" unicode="&#xe80e;" d="M684 611v-17c0-8 5-14 13-14h84c7 0 13 6 13 14 0 0 0 0 0 0v17c10 4 18 8 24 16 7 8 11 19 7 31-4 25-17 46-39 60-15 6-33 10-48 8-18 0-33-2-49-8-21-14-35-35-38-60-2-12 0-23 7-31 8-8 16-14 26-16z m13 24c-8 0-13 3-19 9 0 2 0 6 0 8 2 16 11 31 25 41 12 4 23 6 35 6 12 0 23-2 35-6 13-10 23-24 25-41 0-2 0-6 0-8-6-6-12-9-19-9-8 0-14-6-14-14v-16h-58v16c2 8-4 14-10 14z m14 46c9 0 17-8 17-17s-8-18-17-18-18 8-18 18 8 17 18 17z m56 0c10 0 18-8 18-17s-8-18-18-18-17 8-17 18 7 17 17 17z m-29-29c10 0 17-8 17-17s-7-18-17-18-18 8-18 18 8 17 18 17z m111-66v8c0 8-6 13-14 13-8 0-14-5-14-13l0 0v-6l-87-45-80 43v6c0 8-5 13-13 13-8 0-14-5-14-13l0 0v-8l-9-10c-6-6-6-13 0-19 0 0 0 0 0 0 5-6 13-6 19 0 0 0 0 0 0 0l6 8 62-33-35-18-6 8c-6 6-13 6-19 0 0 0 0 0 0 0-6-6-6-14 0-19 0 0 0 0 0 0l9-10v-8c0-8 6-14 14-14 0 0 0 0 0 0 8 0 14 6 14 14v6l52 25 47-25v-6c0-8 5-14 13-14 0 0 0 0 0 0 8 0 14 6 14 14v8l10 10c5 5 5 13 0 19 0 0 0 0 0 0-6 6-14 6-20 0 0 0 0 0 0 0l-8-8-29 16 70 35 8-8c6-6 13-6 19 0s6 13 0 19l-9 12z m-231-517c9 0 17 8 17 18l0 0v74c2 9-6 19-16 19-9 2-19-6-19-15 0-2 0-2 0-4v-74c0-10 8-18 18-18z m403 282c-5 4-11 4-17 2l-179-76v58c0 10-7 18-19 18-2 0-4 0-6-2l-179-76v59c0 5-3 11-7 15-6 4-12 4-18 2l-58-25 0 0-6-2v101h454v353h-454v6c0 10-8 18-17 18-10 0-18-8-18-18v-474l-76-31v86l-52-24-21 340h-121l-13-406-22-9c-6-2-11-10-11-18v-283c0-10 7-18 17-18h814c9 0 17 8 17 18v369c0 7-2 13-8 17z m-704 295l21-316-89-35 13 351h55z m73-411c6-4 12-4 18-2l153 64h2v0l23 9v-58c0-6 4-12 8-15 6-4 12-4 18-2l178 75v-58c0-10 8-17 18-17 2 0 4 0 8 2l178 75v-324h-776v252l167 70v-58c0-4 1-10 5-13z m142 223v285h421v-285h-421z m-126-389c10 0 17 8 17 18l0 0v74c2 9-5 19-15 19s-20-6-20-15c0-2 0-2 0-4v-74c0-10 8-18 18-18z m107 0c9 0 17 8 17 18l0 0v74c0 9-8 17-17 17s-18-8-18-17v-74c-2-10 8-18 18-18l0 0z m-212 109c-10 0-17-8-17-17l0 0v-74c0-10 7-18 17-18 10 0 17 8 17 18v74c0 9-7 17-17 17 0 0 0 0 0 0z" horiz-adv-x="1142" />

<glyph glyph-name="affordable_meds_icons_v04-08" unicode="&#xe80f;" d="M347 445c8 8 8 20 0 27-7 8-19 8-26 0-8-7-8-19 0-27 5-7 19-7 26 0 0 0 0 0 0 0z m193-26c23 23 23 59 0 82-23 23-59 23-82 0-23-23-23-59 0-82 0 0 0 0 0 0 23-23 59-23 82 0z m-55 55c7 8 19 8 27 0 7-8 7-19 0-27-8-7-20-7-27 0-8 6-8 18 0 27 0 0 0 0 0 0z m-27-193c-23-23-23-59 0-82s59-23 82 0c23 23 23 59 0 82 0 0 0 0 0 0-23 21-59 21-82 0z m55-55c-7-8-19-8-26 0-8 8-8 19 0 27 7 7 19 7 26 0 8-8 8-19 0-27 0 0 0 0 0 0z m-171 92c2-10 11-18 23-16 0 0 0 0 0 0l276 56c12 2 17 11 16 23s-12 17-23 15l-277-55c-10-2-17-12-15-23 0 2 0 0 0 0z m252 421c-6 0-10-2-14-5l-206-205c-8-7-8-19 0-26s19-8 27 0l191 191 248-249-439-438-248 248 137 137c8 8 8 19 0 27 0 0 0 0 0 0-8 7-19 7-27 0 0 0 0 0 0 0l-148-151c-8-8-10-19-2-27 0 0 2-2 2-2l274-275c8-7 19-7 27 0 0 0 0 0 0 0l468 466c7 8 7 19 0 27 0 0 0 0 0 0l-277 277c-4 3-8 5-13 5z m372 105l-84-84c-48 37-117 39-164 2l-69 71 0 0c-23 23-59 23-82 0l-550-552c-23-23-23-59 0-82l78-78c-24-72 14-151 86-176 29-9 61-9 90 0l78-78c23-23 59-23 82 0l550 550c23 23 23 59 0 82l0 0-71 69c37 49 37 116-2 164l84 84c8 7 8 21 0 28-5 8-19 8-26 0z m-96-263c-4-4-5-10-5-13 0-6 1-10 5-14l84-82c8-7 8-19 0-27 0 0 0 0 0 0l-551-549c-8-8-19-8-27 0 0 0 0 0 0 0l-86 86c-4 3-9 5-13 5-4 0-6 0-8-2-49-22-109-1-132 48-11 27-11 58 0 84 4 8 2 17-3 23l-86 86c-8 8-8 19 0 27 0 0 0 0 0 0l546 553c7 8 19 8 26 0 0 0 0 0 0 0l82-84c8-7 19-7 27 0 0 0 0 0 0 0 34 33 86 38 124 12l-29-29c-28 13-64 2-78-27s-2-65 27-78c23-11 50-6 67 12 17 17 23 43 11 66l29 29c28-40 25-94-10-126l0 0z m-57 84c8-8 8-19 0-27 0 0 0 0 0 0-8-7-19-7-27 0 0 0 0 0 0 0-7 8-7 19 0 27 0 0 0 0 0 0 8 8 19 8 27 0 0 0 0 0 0 0z" horiz-adv-x="1000" />

<glyph glyph-name="affordable_meds_icons_v04-09" unicode="&#xe810;" d="M235-35h-78c-10-2-18-14-14-25 2-8 8-12 14-14h78c11-2 23 4 25 14 2 11-4 23-14 25-5 0-9 0-11 0z m77-39c10 2 18 14 14 25-2 8-8 12-14 14l0 0c-10-2-18-14-14-25 2-8 8-14 14-14z m644 163l0 0c-8 73-61 133-131 149l0 0-145 35-16 32c0 2-2 4-4 4-12 12-26 18-42 18-10 0-20-2-30-8v60l2 2h163c12 0 20 8 20 20v214c2 130-103 235-234 235 0 0 0 0 0 0h-116c-129 0-236-105-236-235 0 0 0 0 0 0v-216c0-12 8-20 20-20h163l2-2v-60c-8 6-18 8-30 10-16 0-32-6-42-18-2-2-2-4-4-4l-14-32-143-35c-34-8-67-28-89-54-24-26-38-60-42-95 0 0 0-2 0-2l-8-217c0-6 2-10 6-14 4-4 8-6 14-6h922c12 0 20 8 20 20l-6 219z m-383 719c93-16 161-99 161-193v-196h-108c20 29 30 63 30 99v99c0 10-6 18-16 20-36 6-97 46-133 78 28 28 50 59 66 93z m-346-389v196c0 108 89 195 196 195 0 0 0 0 0 0h108c-18-30-40-59-64-85l0 0c-34-34-103-84-147-92-10-2-16-10-16-20v-99c0-34 10-68 30-99l-107 4z m117 99v83c50 20 97 48 137 86 40-36 86-64 137-84v-83c0-76-61-137-137-137s-137 59-137 135z m205-161v-58c-44-18-92-18-136 0v58c44-20 92-20 136 0l0 0z m-314-276c13 0 21-8 21-20s-8-20-21-20-20 8-20 20 8 20 20 20z m226-193h-421l4 197c8 57 49 101 103 115l66 16v-98c-30-12-46-45-34-75 12-30 44-46 75-34s46 44 34 74c-6 17-18 29-34 35v108l34 8 173-191 0-155z m-143 371l12 24c4 2 8 4 14 4 4 0 8-2 12-4 75-53 175-53 250 0 4 2 8 4 12 4 4 0 10-2 14-4l12-24-163-180-163 180z m181-371v155l173 191 34-8v-106c-46-10-78-49-78-97v-76c0-13 8-21 20-21h38c10 2 18 14 14 25-2 8-8 12-14 14h-20v56c2 32 30 56 62 54 31-2 55-26 55-54v-56h-20c-10-2-18-14-14-25 2-8 8-12 14-14h40c12 0 20 8 20 21v76c0 46-32 87-78 97v98l70-16c54-14 92-58 101-115l6-199h-423z" horiz-adv-x="962" />

<glyph glyph-name="affordable_meds_icons_v04-10" unicode="&#xe811;" d="M275 551h36v-36h-36v36z m153 0h36v-36h-36v36z m498-506v165c0 89-68 161-155 170 7 21-2 42-21 55l51 89c4 6 4 12 0 17-2 6-9 8-15 8h-184c-11 0-17-8-17-19 0-2 0-6 2-8l51-87c-19-11-28-34-21-55-64-7-119-47-142-106l-24 8v51c58 30 94 87 91 153v74c28 2 47 25 45 53-2 25-21 44-47 44-8 93-93 163-186 153-81-9-146-72-153-153-27-2-46-25-46-51 2-25 21-44 44-46v-74c0-64 36-123 91-153v-51l-173-65c-43-17-72-58-72-104v-212c0-11 8-17 16-17h615c10 0 17 8 17 17v42h227c27 0 48 21 50 47 3 32-19 55-44 55z m-691 614c11 75 79 127 153 117 61-9 108-55 116-117h-269z m-46-50c0 6 6 12 12 12h0 337c7 0 13-6 13-12 0-7-6-13-13-13 0 0 0 0 0 0h-337c-6 0-12 6-12 13z m46-49h271v-70h-82l-26 25c-4 5-8 5-12 5h-32c-4 0-9-3-13-5l-25-25h-83v70z m89-106c4 0 9 2 13 4l25 26h17l26-26c4-4 8-4 12-4h85c-19-72-93-117-165-98-49 13-85 49-98 98h85z m89-182c0-24-19-43-42-43s-43 19-43 43v48c15-4 28-6 43-6l0 0c15 0 29 2 44 6l-2-48z m-118-24c12-42 57-63 99-50 26 8 45 27 51 50l17-6c-2-11-2-21-2-30v-167c-28-2-47-25-45-53 2-26 24-45 47-45h197v-25h-456v170h-36v-170h-86v193c0 32 19 59 48 70l166 63z m627-239c6 0 12-6 12-13 0-6-6-13-12-13h-460c-6 0-13 7-13 13 0 7 7 13 13 13 19 0 34 15 34 34v169c0 74 61 136 135 136h123c74 0 136-59 136-136 0 0 0 0 0 0v-169c0-19 15-34 32-34z m-210 434h-40l-41 72h123l-42-72z m-51-36h62c6 0 12-6 12-12s-6-13-12-13h-62c-6 0-13 6-13 13s7 12 13 12z" horiz-adv-x="1021" />

<glyph glyph-name="affordable_meds_icons_v04-11" unicode="&#xe812;" d="M521 663h-458v125c0 35 27 62 62 62h333c36 0 63-27 63-62v-125z m-417 41h375v84c0 12-8 20-21 20h-333c-12 0-21-8-21-20v-84z m375-854h-375c-58 0-104 46-104 104v500c0 73 38 104 71 131s54 46 54 98c0 13 8 21 21 21s21-8 21-21c0-73-38-104-71-131s-54-46-54-98v-500c0-35 27-62 62-62h375c36 0 63 27 63 62v40c0 12 8 21 21 21s20-9 20-21v-40c0-58-45-104-104-104z m84 583c-13 0-21 9-21 21 0 52-25 73-54 98s-71 58-71 131c0 13 8 21 21 21s20-8 20-21c0-52 25-73 55-98s70-58 70-131c0-12-8-21-20-21z m-130-450c-33 0-64 13-87 36-52 52-46 139 10 196l177 177c57 56 144 62 196 10s46-139-10-196l-177-177c-29-29-67-46-109-46z m207 413c-30 0-57-13-77-33l-178-180c-39-41-45-102-10-137s96-29 138 12l177 177c39 42 45 103 10 138-19 15-40 23-60 23z m-196-123l29 29 156-156-29-29-156 156z m-194-194h-229v42h187v229h-187v42h229v-313z" horiz-adv-x="765" />

<glyph glyph-name="affordable_meds_icons_v04-12" unicode="&#xe813;" d="M345 141v-36a61 61 0 0 1 15-40v-131a55 55 0 0 1 55-55h96a55 55 0 0 1 54 55v131a61 61 0 0 1 15 40v36a276 276 0 1 1-235 0z m179-207a14 14 0 0 0-13-13h-96a14 14 0 0 0-13 13v28h67a21 21 0 1 1 0 41h-67v41h122z m-60 692a235 235 0 0 0 88-453 20 20 0 0 1-13-19v-49a20 20 0 0 0-20-20h-113a20 20 0 0 0-20 20v49a20 20 0 0 1-12 19 235 235 0 0 0 88 453z m-23 117v57a21 21 0 0 0 42 0v-57a21 21 0 0 0-42 0z m0-190a21 21 0 0 0 21 21 193 193 0 0 0 193-193 21 21 0 1 0-41 0 152 152 0 0 1-150 151 21 21 0 0 0-21 21z m314 146a20 20 0 0 0 0-29l-38-38a20 20 0 0 0-14-6 20 20 0 0 0-15 6 21 21 0 0 0 0 29l38 38a21 21 0 0 0 29 0z m121-292a21 21 0 0 0-21-20h-44a21 21 0 0 0 0 41h44a21 21 0 0 0 21-21z m-667 225l-38 38a21 21 0 0 0 29 29l38-38a21 21 0 0 0 0-29 20 20 0 0 0-15-6 20 20 0 0 0-14 6z m-73-225a21 21 0 0 0-20-20h-46a21 21 0 0 0 0 41h46a21 21 0 0 0 20-21z m0 0" horiz-adv-x="903" />

<glyph glyph-name="affordable_meds_icons_v04-13" unicode="&#xe814;" d="M737 455h-184v106h-106v184h106v105h184v-105h105v-184h-105v-106z m-132 53h79v105h106v79h-106v105h-79v-105h-105v-79h105v-105z m-79-184h53v-316h-53v316z m-302 263c-63-3-116 47-119 110 0 3 0 3 0 6v31c0 63 50 116 113 116 3 0 3 0 6 0 63 3 116-47 118-110 0-3 0-3 0-6v-29c0-65-50-118-113-118-3 0-3 0-5 0z m0 210c-34 3-63-23-66-57 0-3 0-3 0-6v-29c0-37 26-65 60-65 3 0 3 0 6 0 34-3 63 23 66 57 0 3 0 3 0 6v31c0 34-27 63-61 63-3 0-3 0-5 0z m-198-947c-15 0-26 10-26 26v658c0 16 11 27 26 27s27-11 27-27v-658c0-16-11-26-27-26z m1211 132h-1211c-15 0-26 10-26 26s11 26 26 26h1211c16 0 26-10 26-26s-10-26-26-26z m-684 158h-527c-15 0-26 10-26 26s11 26 26 26h527c15 0 26-10 26-26s-11-26-26-26z m684-290c-16 0-26 10-26 26v342c0 45-35 79-79 79h-711c-8 0-16 3-21 11l-132 158c-21 18-52 24-76 13-21-8-34-29-34-50v-53c0-15-11-26-26-26s-27 11-27 26v53c0 42 27 82 66 97 47 19 100 8 137-26l126-150h698c73 0 131-58 131-132v-342c0-16-10-26-26-26z" horiz-adv-x="1263" />

<glyph glyph-name="affordable_meds_icons_v04-15" unicode="&#xe815;" d="M1000 434c0 7-4 13-11 15l-150 50c-4 2-8 2-10 0l-149-50c-8-2-12-10-12-15v-185c0-9 8-17 17-17 0 0 0 0 0 0h300c9 0 17 8 17 15 0 0 0 0 0 0l-2 187z m-232-167v99h134v-99h-134z m199 0h-34v117c0 9-8 17-17 17h-167c-10 0-18-8-18-17 0 0 0 0 0 0v-117h-32v155l132 46 135-44 1-157z m33-217c0 7-4 13-11 15l-150 50c-4 2-8 2-10 0l-149-50c-8-2-12-8-12-15v-185c0-9 8-17 17-17h300c9 0 17 8 17 17l-2 185z m-232-167v99h134v-99h-134z m199 0h-34v117c0 9-8 17-17 17h-167c-10 0-18-8-18-17 0 0 0 0 0 0v-117h-32v155l132 44 135-44 1-155z m33 900c0 8-4 13-11 15l-150 52c-4 2-8 2-10 0l-149-52c-8-2-12-9-12-15v-182c0-10 8-18 17-18h300c9 0 17 8 17 18l-2 182z m-232-167v100h134v-100l-134 0z m199 0h-34v117c0 10-8 17-17 17h-167c-10 0-18-7-18-17 0 0 0 0 0 0v-117h-32v155l134 45 134-45 0-155z m-334 67v33h-117c-9 0-17-8-17-18v0-748c0-10 8-18 17-18h117v35h-99v367h99v32h-99v317h99z m-616-349h50v-50c0-10 8-17 16-17 0 0 0 0 0 0h19c9-27 36-41 63-31 6 2 12 6 17 9 22-19 52-17 69 4 4 6 8 12 10 18h73c10-27 36-41 63-31 14 6 25 15 31 31h19c10 0 18 7 18 17v0 84c0 4-2 8-6 12l-27 29v176c0 10-8 17-17 17-2 0-6 0-8-1l-42-22v104c0 10-8 17-18 17l0 0h-67c-9 0-17-7-17-17v-90l-33-17v107c0 10-7 17-17 17h-63c-8 0-16-7-16-17v-90l-32-17v107c0 10-8 17-17 17h-68c-9 0-17-7-17-17v-334c0-8 8-15 17-15 0 0 0 0 0 0z m83-35v135h199v-135h-36c-10 25-36 40-63 31-6-2-12-6-18-10-21 19-51 18-71-4-3-5-7-11-9-17h-2z m50-32c-10 0-18 7-18 17 0 9 8 17 18 17s17-8 17-17-8-17-17-17l0 0z m67 0c-10 0-17 7-17 17 0 9 7 17 17 17 10 0 17-8 17-17 0-10-7-17-17-17 0 0 0 0 0 0z m167 0c-10 0-17 7-17 17s7 17 17 17c10 0 17-8 17-17s-7-17-17-17l0 0z m50 32h-4c-10 27-36 40-63 31-14-6-25-15-31-31h-4v100h60l40-40 2-60z m-135 367h33v-106l-33-17v123z m-134 0h33v-106l-31-17-2 123z m-31-133v-17c0-10 8-17 18-17 2 0 5 0 7 2l110 53v-40c0-9 7-17 17-17 2 0 6 0 8 2l109 54v-123h-67v17c0 10-8 17-17 17h0-236c-10 0-18-7-18-17 0 0 0 0 0 0v-83h-32v141l101 51v-23z m-67 135v-108l-34-17v123l34 2z" horiz-adv-x="1000" />

<glyph glyph-name="affordable_meds_icons_v04-14" unicode="&#xe816;" d="M881-150h-48v714h-142v48h166c14 0 24-10 24-24v-738z m-619 0h-48v738c0 14 10 24 24 24h167v-48h-143v-714z m381 0h-48v71h-95v-71h-48v95c0 14 10 24 24 24h143c14 0 24-10 24-24v-95z m-143 441h-119c-14 0-24 9-24 23v131c0 15 10 24 24 24h119c14 0 24-9 24-24v-131c0-12-10-23-24-23z m-95 47h71v83h-71v-83z m309-47h-119c-14 0-24 9-24 23v131c0 15 10 24 24 24h119c15 0 24-9 24-24v-131c0-12-9-23-24-23z m-95 47h72v83h-72v-83z m-119-286h-119c-14 0-24 10-24 24v131c0 14 10 24 24 24h119c14 0 24-10 24-24v-131c0-12-10-24-24-24z m-95 48h71v83h-71v-83z m309-48h-119c-14 0-24 10-24 24v131c0 14 10 24 24 24h119c15 0 24-10 24-24v-131c0-12-9-24-24-24z m-95 48h72v83h-72v-83z m310 155h71v-48h-71v48z m0-95h71v-48h-71v48z m0-96h71v-47h-71v47z m0-95h71v-48h-71v48z m166-119h-47v452h-191v48h214c15 0 24-9 24-24v-476z m-71 476h-48v95h-119v48h167v-143z m-929-71h72v-48h-72v48z m0-95h72v-48h-72v48z m0-96h72v-47h-72v47z m0-95h72v-48h-72v48z m-47-119h-48v476c0 15 10 24 24 24h238v-48h-214v-452z m71 476h-48v143h191v-48h-143v-95z m500 238h-143v72h-71v143h71v71h143v-71h72v-143h-72v-72z m-95 48h47v71h72v48h-72v71h-47v-71h-72v-48h72v-71z" horiz-adv-x="1095" />

<glyph glyph-name="affordable_meds_icons_v04-16" unicode="&#xe817;" d="M1298 299l-270 272c-11 12-30 19-47 19h-371v-43h109v-326h42v324h220c5 0 12-2 17-7l38-38h-100c-23 0-42-19-42-42v-197c0-23 19-42 42-42l0 0h326v-173c0-12-9-21-21-21h-45c-12 83-90 142-172 130-67-9-119-61-130-130h-308c-11 83-89 139-172 128-66-10-118-62-128-128h-45c-12 0-21 9-21 21v194h-45v-194c0-35 28-66 66-66h43c4-33 21-64 45-87h-329v-45h1043c75 0 139 56 151 130h45c35 0 66 30 66 66 0 0 0 0 0 0v241c0 5-2 12-7 14z m-972-298c0 59 50 109 109 109 59 0 109-50 109-109 0-59-50-108-109-108h0c-61 0-109 49-109 108z m215-108c24 23 41 54 45 87h308c4-33 21-64 45-87h-398z m502 0c-59 0-109 47-109 108s47 109 109 109c59 0 108-47 108-109 0 0 0 0 0 0 0-59-47-108-108-108z m-109 371v196h142l182-182v-12l-324-2z m-520-239h42v-43h-42v43z m607 0h43v-43h-43v43z m-1021 64h109v-43h-109v43z m43 87h66v-42h-66v42z m23 88h43v-43h-43v43z m218 21c156 0 283 128 283 284s-127 283-283 283-284-127-284-283c0 0 0-3 0-3 0-156 128-283 284-281l0 0z m0 522c132 0 239-108 239-241 0-132-109-238-242-238-130 0-236 106-238 238 0 133 106 239 241 241-3 0 0 0 0 0z m0-434c4 0 9 2 14 4 14 14 137 140 137 234-2 85-73 149-158 147-81-3-142-66-147-147 0-94 123-220 137-234 5-4 10-7 17-4l0 0z m0 347c59 0 108-50 108-109 0-56-68-142-108-186-40 44-109 130-109 186 0 59 50 109 109 109z m64-109c0 36-29 66-67 66s-66-28-66-66c0-35 29-66 66-66 0 0 0 0 0 0 38 0 69 31 67 66 2 0 2 0 0 0l0 0z m-88 0c0 12 10 22 21 22 12 0 22-10 22-22 0-12-10-21-22-21-9 0-19 9-21 21l0 0 0 0z m565-435h88v-42h-88v42z" horiz-adv-x="1305" />

<glyph glyph-name="affordable_meds_icons_v04-17" unicode="&#xe818;" d="M746 197c-88 0-160 71-160 158 0 87 71 159 158 159 57 0 112-30 138-81l10-17-34-19-8 17c-32 57-106 77-163 45-57-32-78-106-46-163 33-57 107-78 164-46 22 14 41 35 51 59l7 17 36-15-7-17c-23-59-82-97-146-97z m125 145v18 8l-2 19 38 4 2-19c0-4 0-6 0-10l0-19-38-1z m42-150c-4 0-8 2-12 3-9 6-11 17-5 27 0 0 0 0 0 0 15 25 28 51 40 78 36 106-21 222-128 258s-222-21-258-127c-7-21-11-44-11-65 2-40 11-80 32-114 6-9 4-21-5-26-10-6-21-4-27 5 0 0 0 0 0 2-23 40-36 86-38 133 0 133 108 241 241 241s241-108 241-241c0-26-4-51-13-76-12-30-27-59-46-87 0-8-6-11-11-11z m-735 379c-53 0-96 44-96 97 0 53 43 97 96 97 54 0 97-44 97-97s-43-97-97-97l0 0z m0 158c-32 0-58-27-58-59s26-59 58-59 59 27 59 59-26 59-59 59l0 0z m141-179l-32 21 11 15c15 25 25 53 25 84 0 78-63 142-143 142s-142-64-142-142c0-23 6-44 15-65l10-17-34-17-10 19c-44 89-6 196 84 239s195 8 239-81c11-25 17-50 19-76 0-38-12-74-33-105l-9-17z m419-681l0 0c-7 0-13 4-17 9l-180 346c-6 9-2 21 7 26 0 0 0 0 0 0 10 6 21 2 27-7 0 0 0 0 0 0l163-315 158 292c5 10 17 13 26 8 0 0 0 0 0 0 10-6 14-17 8-25 0 0 0 0 0 0l-175-323c-2-7-9-11-17-11z m-556 454l-114 172 33 21 81-121 118 199 32-19-150-252z m101 1l-19 2h-8l-19 2 2 38 19-2h10l19-2-4-38z m59-22l-17 9-2 0-17 8 17 34 17-10 4-1 17-10-19-30z m178-452l-2 38h19 6 19l2-38h-19-6-19z m-28 0l-19 2h-6l-19 2 4 38 19-2h5l19-2-3-38z m-74 11l-19 6-6 2-19 6 11 36 19-6 6-2 19-6-11-36z m-73 25l-17 9-5 2-17 10 20 32 18-9c1-2 3-2 5-4l17-10-21-30z m-64 46l-12 15-3 5-12 16 33 20 11-15c2-2 2-4 4-4l11-15-32-22z m-38 72v19c0 2 0 4 0 5v21h38v-24-19l-38-2z m44 62l-36 16 7 17 2 5 8 17 34-15-8-17c0-2-2-4-2-6l-5-17z m30 61l-32 23 11 15 4 6 11 15 31-23-12-15-4-4-9-17z m45 57l-32 19 10 17 2 4 9 17 34-19-9-17c0-2-2-4-4-6l-10-15z m-5 72l-4 19c0 2 0 4 0 4l-6 19 38 9 6-19c0-2 2-5 2-7l4-19-40-6z m233-402l-6 38 21 3 19 2 6-38-23-3-17-2z m72 11c-11 0-19 8-21 17s8 19 17 21l0 0h4l6 2c9 2 21-4 23-15 0 0 0 0 0 0 2-10-4-21-14-23 0 0 0 0 0 0h-3 2c-4 0-6-2-10-2l-4 0z m-624 689l34 17 17-38-34-17-17 38z" horiz-adv-x="987" />

<glyph glyph-name="affordable_meds_icons_v04-18" unicode="&#xe819;" d="M500-150h0a500 500 0 0 1 358 849 499 499 0 0 1-717 0 500 500 0 0 1 358-848z m69 52a666 666 0 0 1 138 186l5-2c5-3 11-6 17-10l20-12 17-11c6-5 13-10 19-15s10-9 15-13 6-6 9-9a449 449 0 0 0-240-114z m271 147c-3 3-7 6-10 9s-11 10-17 14-14 11-21 16l-18 13c-8 5-15 9-24 14s-12 7-19 10l-7 5a597 597 0 0 1 42 196h186a451 451 0 0 0-112-277z m-10 592c3 4 7 6 10 10a452 452 0 0 0 113-278h-186a589 589 0 0 1-41 198c2 0 4 2 6 3 7 3 13 7 19 10s15 9 24 14 12 9 18 13 14 10 21 16 11 10 16 14z m-22 43l-9-9-15-13c-6-6-13-10-20-15l-16-11c-6-5-13-9-20-13s-11-7-17-10l-3-1a646 646 0 0 1-137 185 450 450 0 0 0 237-113z m-285 95a613 613 0 0 0 142-186l-17-6c-6-2-12-4-18-6s-16-5-25-6-11-4-17-5c-10-1-19-3-29-4-5 0-10-2-15-2l-21 0z m0-262c9 0 17 0 26 0s11 2 16 3c11 1 21 2 32 4 6 2 13 3 19 5s19 4 28 7l19 6c7 3 14 5 21 8a534 534 0 0 0 37-179h-198z m0-190h198a545 545 0 0 0-37-178c-7 3-13 5-20 7s-13 5-19 7-19 5-28 7-12 3-19 4c-10 2-21 4-32 5-5 0-10 2-16 2s-17 0-26 2z m0-191c7 0 14 0 21 0s10-1 15-2c10-1 19-2 29-4l17-4c9-2 17-4 25-7s12-4 18-6l15-5a636 636 0 0 0-141-186z m-330-120c3 3 6 6 9 8s10 9 15 13 13 10 19 15l17 11 20 13 17 9 5 3a661 661 0 0 1 137-187 448 448 0 0 0-240 115z m285-94a636 636 0 0 0-141 185l15 6c6 2 12 4 18 6s17 4 25 7l17 4c10 1 20 3 29 4 5 0 10 1 15 2s14 0 21 0z m0 261c-9 0-17 0-26-2s-11-1-16-2c-11-1-21-3-32-5-6-1-12-2-19-4s-18-4-28-7-13-4-19-7-13-4-20-6a552 552 0 0 0-38 178h198z m0 190h-198a540 540 0 0 0 37 179c7-3 14-5 21-8l19-6c10-3 19-5 28-7s13-4 19-5c11-2 21-3 32-4 5 0 11-2 16-3 9 0 17 0 26 0z m-1 406v-216l-21 0c-5 0-10 1-15 2q-15 2-29 4c-6 0-11 3-17 5s-17 3-25 6-12 4-18 6l-18 6a616 616 0 0 0 143 187z m-47 19a646 646 0 0 1-137-186l-4 2-17 10c-7 4-14 8-20 13s-11 7-17 11-12 9-19 14l-15 12-9 9a449 449 0 0 0 237 115z m-270-147c3-4 7-6 10-10l17-14c7-6 14-11 21-16s12-9 18-13 15-9 24-14 12-7 19-10l5-3a595 595 0 0 1-40-198h-187a451 451 0 0 0 113 278z m73-324a597 597 0 0 1 42-196l-7-5c-7-3-13-7-19-10s-15-9-24-14-12-8-18-13-14-10-21-16l-17-14c-3-3-7-6-10-9a450 450 0 0 0-112 277z" horiz-adv-x="1000" />

<glyph glyph-name="affordable_meds_icons_v04-19" unicode="&#xe81a;" d="M587 508c9 2 15 9 15 17 0 7-8 13-15 15h-17l36 35c5 8 3 17-2 23-6 5-15 5-21 0l-58-58h-58c-9 2-16-6-16-15s5-17 14-17c2 0 2 0 4 0h118z m213-299c0 35-7 69-21 103-18 48-52 89-95 119l-48 34c86 75 95 204 20 290s-205 93-291 20-96-205-21-291c0 0 0 0 0 0 13-15 28-26 43-38l-21-15c-84-59-155-138-205-230-6-11-10-22-10-35v-11c0-19 8-38 21-53 13-13 32-20 50-20h72v-189c-2-9 5-17 14-17s17 6 17 15c0 2 0 2 0 4v187h142c34 0 62 28 64 62 0 0 0 0 0 0 0 3 0 7 0 9l22 30c49 63 86 134 112 209 2 4 2 8 4 9 38-26 66-61 82-102 12-28 17-60 17-92v-318c-2-9 6-17 15-17 10-1 17 6 17 15 0 2 0 2 0 4l0 318z m-170 523l-299-157c-6 21-8 43-4 64l277 118c9-8 18-15 26-25l0 0z m-60 45l-106-45-62 30c52 34 114 39 168 15z m-192-35l50-25-90-37c8 22 21 43 40 62z m-36-197l307 161c48-82 20-189-62-237s-189-21-237 61c-2 6-6 10-8 15z m90-431h-77l-28 244c11 12 24 21 36 30l69-274z m-236 11c-7 7-11 19-11 28v11c0 8 2 13 6 21 30 54 67 102 110 145l15-123h-51c-9 0-14-7-14-15s7-15 14-15l0 0h55l7-63h-103c-11 0-20 3-28 11z m294-2c-6-6-13-9-23-9h-3l-15 63h18c10 0 17-4 23-9 13-13 13-34 0-45 2 0 2 0 0 0z m37 80l-11-17c0 0-2 2-2 2-11 12-28 19-45 19h-28l-50 202 28 20c61-26 131-20 187 15l33-22c-2-4-3-9-5-19-25-73-60-140-107-200l0 0z" horiz-adv-x="1071" />

<glyph glyph-name="affordable_meds_icons_v04-20" unicode="&#xe81b;" d="M1281 368h-276v407c0 11-10 18-19 18s-18-9-18-18v-557c0-12 9-19 18-19l0 0h80l-171-246-171 246h75c12 0 18 9 18 19v557c-2 11-11 18-20 18-9 0-16-9-18-18v-407h-206v87h91c7 0 14 5 19 11 2 7 2 14 0 21l-206 297c-7 9-18 11-27 4-2-2-5-2-5-4l-203-299c-7-9-5-21 5-28 2-2 6-4 11-4h94v-87h-272c-11-2-18-11-18-21 0-9 9-15 18-18h272v-411c2-11 11-18 20-18 9 0 16 9 18 18v557c0 12-9 19-20 19h-75l166 246 167-246h-73c-12 0-18-10-21-19v-557c3-11 12-18 21-18 9 0 16 9 18 18v411h206v-91h-94c-7 0-14-5-18-12-3-6-3-13 0-20l207-299c5-5 10-9 16-9 7 0 12 2 16 9l213 301c4 7 4 14 2 21-2 7-9 11-18 11h-98v94h276c11 2 18 11 18 20-2 7-9 14-18 16z" horiz-adv-x="1361" />

<glyph glyph-name="affordable_meds_icons_v04-21" unicode="&#xe81c;" d="M316 23h-316v634h671v-125h-37v88h-597v-559h279v-38z m533 208l-29 23 7 10v520l-123-123-26 25 155 155c7 7 18 7 26 0 3-4 5-9 5-13v-572c0-3-2-9-4-11l-11-14z m-825 393l-22 29 246 190c4 2 8 3 11 3l603 2v-37l-597-1-241-186z m198 24l238 202 24-28-238-202-24 28z m173-6l219 203 26-28-219-202-26 27z m-70-158c-5 0-9 2-12 6l-30 27-38-22c-10-5-21-2-26 8-2 3-2 5-2 9v108c0 11 7 19 18 19s19-8 19-19v-77l22 13c7 4 16 4 22-2l26-24 23 26c6 5 17 7 23 2l27-17 0 90c0 11 7 19 18 19l0 0c12 0 19-8 19-19l-2-121c0-11-7-18-18-18-4 0-8 0-10 1l-42 24-26-27c-1-4-5-6-11-6l0 0z m272-632l-16 7c-131 57-195 186-200 213s-2 245-2 269v11l224 110 17-33-205-101c-1-92-1-232 2-250s63-136 179-188l16-7-15-31z m-9-2l-14 33 16 7c114 50 182 166 186 190 3 18 2 158 2 250l-206 99 16 35 226-110v-11c0-24 4-239-1-269-6-33-81-162-208-217l-17-7z m9 66l-11 9c-25 19-148 114-148 175v215l158 75 161-77v-11c0-7 0-180-5-220-6-44-110-131-142-157l-13-9z m-123 377v-193c0-29 68-94 123-136 57 46 114 105 116 123 4 33 6 166 6 206l-123 59-122-59z m105-182h37v-173h-37v173z" horiz-adv-x="864" />

<glyph glyph-name="affordable_meds_icons_v04-22" unicode="&#xe81d;" d="M968 360h-106v121h-121v30h-152v-153h-92v49c0 32-20 59-48 71l-73 28v13c11 11 21 24 26 39 30 5 51 29 51 59v64c1 76-56 139-133 141s-139-56-141-132c0-4 0-8 0-9v-62c0-30 22-56 50-59 6-15 13-28 26-40v-13l-72-28c-30-11-49-39-51-70v-49h-15c-26 0-46-20-46-46l0 0v-30c0-26 20-45 46-45v-365h851v365c26 0 47 21 47 45v0 30c0 26-21 46-47 46z m-136 92v-92h-91v92h91z m-214 31h92v-121h-92v121z m-303 45c-34 0-62 28-62 61 0 0 0 0 0 0v62c26 2 52 11 75 24l0 0c13-13 30-22 46-24v-62c2-33-26-61-59-61 0 0 0 0 0 0z m91 65v52c9-5 15-15 15-26 0-11-6-20-15-26z m-91 194c59 0 106-49 106-106v-10c-9 6-19 10-30 10-15 0-30 5-41 16l-18 17-19-11c-22-15-49-22-75-22-11 0-20-4-29-10v10c0 57 46 106 106 106 0 0 0 0 0 0z m-106-168c0 11 5 21 15 26v-52c-10 6-15 15-15 26l0 0z m106-121c11 0 20 2 30 6v-6c-2-17-17-30-34-28-15 2-26 13-28 28v6c11-4 21-6 32-6l0 0z m-153-87c0 18 11 35 30 42l65 25c11-32 45-49 76-39 19 5 34 20 39 39l66-25c18-7 29-24 29-42v-49h-31v60h-30v-62h-182v62h-30v-62h-32v51z m777-505h-792v335h792v-335z m44 380c0-10-7-15-15-15h-851c-9 0-15 7-15 15v30c0 9 8 14 15 14h851c10 0 15-7 15-14l0-30z m-504-259v-91h91v91h91v91h-91v91h-91v-91h-92v-91h92z m-62 60h91v91h30v-91h91v-30h-91v-92h-30v92h-91v30z m520 540v121h-330v-121h-80v-30h486v30h-76z m-30 91v-91h-76v91h76z m-106 0v-91h-69v91h69z m-164 0h65v-91h-65v91z" horiz-adv-x="1061" />

<glyph glyph-name="affordable_meds_icons_v04-23" unicode="&#xe81e;" d="M937 220c55 83 71 187 47 284-37 144-156 251-304 269-69 10-137-2-200-32-118-55-195-168-203-298-6-73 10-148 49-210 6-10 14-21 22-33l12-16 6-8-10-8c-2 0-2-2-4-4l-20-20c-55-55-107-108-162-162-4-5-8-9-10-15l-6-8v-8c2-8 10-14 18-18h8l6 4c4 2 10 6 14 10 61 61 124 122 185 184 0 0 2 2 2 4l2 5 6 12 10-8c2-2 4-4 6-7 87-70 200-95 310-68 30 6 58 18 87 32 8 4 14 14 12 24-2 10-8 17-18 19-6 2-15 0-21-4-153-79-344-19-423 135-32 61-42 132-30 199 16 95 77 178 162 222 83 45 182 49 269 12 122-52 188-151 192-287 2-61-16-122-50-172-4-6-6-12-4-20 2-6 4-11 10-15 10-8 24-6 30 6 0 0 0 0 0 0z m-75 154c6 29 6 57-2 83-24 124-141 205-265 185-69-11-129-53-164-114-34-61-40-133-14-196 30-87 111-146 202-148 35-2 71 2 104 16 8 2 16 10 16 20 0 9-2 15-8 19-6 4-14 6-22 4-33-12-69-16-104-10-101 16-170 111-154 212 0 2 0 4 2 8 11 65 57 120 120 140 63 24 134 10 184-34 47-41 71-102 65-162-2-21-18-39-39-39l0 0c-20 0-38 16-40 39 0 2 0 4 0 8v89c0 12-8 22-20 24-8 2-16-2-23-8l-6-6-8 2c-50 28-113 10-141-39-29-50-11-113 38-141 39-23 87-16 119 12l7 6 12-10c22-20 54-28 83-18 30 8 52 30 58 58z m-228-18l0 0c-33 0-59 26-59 59 0 32 26 59 59 59l0 0c16 0 30-7 40-19 10-10 16-24 16-40 2-33-24-57-56-59z" horiz-adv-x="1150" />

<glyph glyph-name="affordable_meds_icons_v04-24" unicode="&#xe81f;" d="M313 812h536c-9-13-13-28-13-43v-255c0-11 9-19 19-19 11 0 20 8 20 19v59h106c11 0 19 9 19 20v174c0 47-36 83-81 83 0 0 0 0 0 0h-606c-11 0-19-8-19-19s8-19 19-19z m649-43v-157h-85v155c0 23 19 43 42 43s43-20 43-41l0 0z m17-715l-128 128c15 32 24 66 24 100 0 125-103 225-228 225-126 0-226-102-226-227 0-28 5-55 15-81l-23-23-94 95c-8 9-19 9-27 0l-22-21v177c0 10-8 19-19 19s-19-9-19-19v-217l-177-177c-8-6-8-19-2-28s19-8 28-2c0 0 0 0 2 2l149 149v-140h-85c-11 0-19-9-19-19v-62c0-45 36-81 81-83h585c44 0 83 36 83 81v17c12-13 32-21 51-21l0 0c40 0 74 31 74 74-2 19-8 38-23 53z m-519 228c0 104 85 187 189 187 104 0 187-85 187-189s-85-187-189-187c-68 0-132 38-164 97l113 115v-44c0-11 8-19 19-19s19 8 19 19v93c0 11-8 19-19 19l0 0h-94c-10 0-19-8-19-19s9-19 19-19h49l-102-104c-4 17-8 34-8 51z m-296-349v42h547v-42c0-15 4-30 12-43h-517c-23-2-42 17-42 43 0-2 0-2 0 0z m630-43c-24 0-43 20-43 43v62c0 10-8 19-19 19h-462v181l36 36 94-94c9-8 19-8 28 0l27 28c41-68 115-109 194-109 34 0 68 9 98 24l89-90v-55c0-28-19-47-42-45 0-2 0-2 0 0l0 0z m157 88c-6-7-15-11-25-11l0 0c-9 0-17 4-24 11l-121 121c19 13 36 30 49 49l121-121c13-13 13-37 0-49 0 0 0 0 0 0z m-323 178c0-10 8-19 19-19 79 0 142 64 142 143 0 10-8 19-19 19-10 0-19-9-19-19 0-58-47-104-104-104-11 2-19-9-19-20 0 0 0 0 0 0z m-609 320h481c11 0 19 8 19 19s-8 19-19 19l0 0h-17v132c0 10-8 19-19 19l0 0h-89c-11 0-20-9-20-19l0 0v-132h-32v211c0 10-8 19-19 19h-85c-13 0-21-9-21-19l0 0v-211h-32v85c0 11-9 19-19 19h-85c-11 0-19-8-19-19l0 0v-85h-22c-10 0-19-9-19-19s9-22 17-19l0 0z m375 149h51v-111h-51l0 111z m-158 80h47v-191h-47v191z m-155-125h47v-66h-47v66z m598 145c0 10-9 19-19 19h-151c-11 2-22-7-22-17-2-11 7-22 17-22 2 0 2 0 5 0h151c10 0 19 9 19 20 0 0 0 0 0 0z m91 14c-8 9-19 9-27 0-9-8-9-19 0-27 0 0 0 0 0 0 8-9 19-9 27 0 7 6 7 19 0 27 0 0 0 0 0 0z m-219-80c-11 2-21-7-21-17-2-11 6-22 17-22 2 0 2 0 4 0h32c11-2 21 7 21 17 2 11-6 22-17 22-2 0-2 0-4 0h-32z m109-39h95c11-2 22 7 22 17 2 11-7 22-17 22-3 0-3 0-5 0h-95c-11 2-22-7-22-17-2-11 7-22 17-22 2 0 2 0 5 0z m-641-630c-10 0-19-8-19-19 0-10 9-19 19-19s19 9 19 19c0 11-8 19-19 19z" horiz-adv-x="1000" />

<glyph glyph-name="affordable_meds_icons_v04-25" unicode="&#xe820;" d="M966 364a342 342 0 0 1-52 375 341 341 0 0 1-414 70 338 338 0 0 1-465-446l-4-4a103 103 0 0 1 72-175 56 56 0 0 1 9 0 103 103 0 0 1 30-81 100 100 0 0 1 82-30 102 102 0 0 1 101-112l9 0a103 103 0 0 1 30-81 102 102 0 0 1 136-8l0 0a103 103 0 0 1 165 90 103 103 0 0 1 111 112 103 103 0 0 1 111 111 103 103 0 0 1 82 175z m-427 411a289 289 0 0 0 390-375l-288 289a25 25 0 0 1-34 0l-162-162a57 57 0 0 0-77 0 55 55 0 0 0 0 77z m-436-543a56 56 0 0 0-38 16 55 55 0 0 0 0 77l60 60a55 55 0 1 0 76-77l-59-60a55 55 0 0 0-39-16z m111-111a54 54 0 0 0-39 93l60 59a55 55 0 0 0 40 16 53 53 0 0 0 39-16 54 54 0 0 0 0-77l-60-59a55 55 0 0 0-40-16z m73-96a54 54 0 0 0 0 77l60 60a54 54 0 0 0 38 16 54 54 0 0 0 55-55 54 54 0 0 0-15-38l-61-60a56 56 0 0 0-77 0z m188-111a56 56 0 0 0-39-15 55 55 0 0 0-38 15 54 54 0 0 0 0 77l60 59a55 55 0 0 0 92-37 55 55 0 0 0-16-39z m128 0a55 55 0 0 0-67-8l33 33a102 102 0 0 1 29 59 21 21 0 0 1 5-7 55 55 0 0 0 0-76z m333 334a55 55 0 0 0-38-15h0a55 55 0 0 0-39 15 25 25 0 0 1-34 0 25 25 0 0 1 0-34 54 54 0 0 0 0-77 54 54 0 0 0-38-15h0a54 54 0 0 0-39 15 25 25 0 0 1-34 0 25 25 0 0 1 0-34 54 54 0 0 0 0-77 56 56 0 0 0-77 0 25 25 0 0 1-34 0 30 30 0 0 1-4-5 100 100 0 0 1-30 64 103 103 0 0 1-81 30c0 3 0 6 0 9a103 103 0 0 1-30 72 104 104 0 0 1-83 29 53 53 0 0 1 0 9 102 102 0 0 1-112 102 56 56 0 0 1 0 9 103 103 0 0 1-102 103 102 102 0 0 1-71-29l-19-19a289 289 0 0 0 396 372l-133-134a103 103 0 0 1 145-145l146 145 311-313a55 55 0 0 0 0-77z" horiz-adv-x="1000" />
</font>
</defs>
</svg>
